masterchef-the-professinals-season-9

Server 1

MasterChef (UK) The Professionals S11E18 (1280x720p HD, 50fps, soft Eng subs)

It is semi-finals week and the competition is heating up. MasterChef presenter Gregg Wallace teams up with chef Monica Galetti and Michelin-starred Marcus Wareing to continue their search for this year’s MasterChef: The Professionals champion.

It is the last semi-final and the three remaining chefs are in close competition for a place in finals week. For their first challenge, they are sent to cook at an exclusive address in Padstow, Cornwall – Paul Ainsworth at No 6. Chef Paul Ainsworth honed his skills with culinary legends Gary Rhodes, Gordon Ramsay and Marcus Wareing before striking out on his own in Cornwall. With his unique inimitable style of combining playful creativity with bold, beautiful and perfectly balanced flavours Paul won a Michelin star and he is now considered one of the greatest chefs in Britain in his own right. The chefs will have the enviable opportunity to learn from Ainsworth himself and cook alongside his elite brigade.

The first step for the chefs is to understand the inspiration and elegance of Paul’s food when he gives them a masterclass and demonstrates his barbecued Cornish duck with Peking tea and a pick-your-own salad. Buoyed on by the insight and energy that Paul imparts, the chefs are challenged to create their version of his duck dish for him to taste. Paul needs reassurance that the chefs before him have understood his philosophy and can emulate his impeccable cookery. He is looking for outstanding skill, personality and a perfect palate from the three chefs.

Once the chefs have shown that they have the culinary mastery to take a place in his kitchen, they are each shown a dish from Paul’s menu. The chefs will join Paul’s dedicated brigade and take responsibility for one dish each to be served during a packed service in his prestigious Michelin-starred restaurant. The chefs face the toughest challenge of their careers, the orders come thick and fast and the dishes will only be served once Paul is satisfied they are perfect. Finally, the chefs return to the MasterChef kitchen to cook against each other in a race for the finals – creating a two-course menu to be judged by Monica, Marcus and Gregg. They must create their best main and dessert of the competition so far, as nothing short of perfection will help them now. The dishes they deliver to the judges will either secure them a place in finals week or see them sent home. Only the two strongest chefs will make it into finals week, taking them one step closer to the title of MasterChef: The Professionals Champion 2018.

First broadcast: 13 December 2018
Duration: 1 hour

Torrent dead? Request reseed at 1337x.to or torrentgalaxy.org – or ask at elsonroa at tutanota.com

Media info:-
General
Format : MPEG-4
Format profile : Base Media
Codec ID : isom (isom/iso2/avc1/mp41)
File size : 2.20 GiB
Duration : 59mn 1s
Overall bit rate : 5 331 Kbps
Writing application : Lavf57.83.100

Video
ID : 1
Format : AVC
Format/Info : Advanced Video Codec
Format profile : [email protected]
Format settings, CABAC : Yes
Format settings, ReFrames : 4 frames
Codec ID : avc1
Codec ID/Info : Advanced Video Coding
Duration : 59mn 1s
Bit rate : 5 006 Kbps
Width : 1 280 pixels
Height : 720 pixels
Display aspect ratio : 16:9
Frame rate mode : Constant
Frame rate : 50.000 fps
Color space : YUV
Chroma subsampling : 4:2:0
Bit depth : 8 bits
Scan type : Progressive
Bits/(Pixel*Frame) : 0.109
Stream size : 2.06 GiB (94%)
Encoded date : UTC 1904-01-01 00:00:00
Tagged date : UTC 1904-01-01 00:00:00
Color range : Limited
Color primaries : BT.709
Transfer characteristics : BT.709
Matrix coefficients : BT.709

Audio
ID : 2
Format : AAC
Format/Info : Advanced Audio Codec
Format profile : LC
Codec ID : 40
Duration : 59mn 1s
Bit rate mode : Constant
Bit rate : 317 Kbps
Channel(s) : 2 channels
Channel positions : Front: L R
Sampling rate : 48.0 KHz
Frame rate : 46.875 fps (1024 spf)
Compression mode : Lossy
Stream size : 134 MiB (6%)

Recent search terms:

  • masterchef the professionals 2018

Comments are closed.